Кадетство / Сезон: 1 / Серии: 1-40 из 40 (Сергей Арланов, Дмитрий Меднов, Валентин Козловский) [2006, Драма, комедия, приключения, DVDRip] 

Цитировать
Кадетство (1 сезон)
Год выпуска: 2006
Жанр: Драма, комедия, приключения
Производитель: "Киноконстанта"
Продолжительность: 00:44:00 серия
Режиссёр: Сергей Арланов, Дмитрий Меднов, Валентин Козловский
В ролях: Александр Головин, Иван Добронравов, Борис Корчевников, Аристарх Венес, Арутр Сопельник, Павел Бессонов, Кирилл Емельянов, Александр Баринов, Владимир Стеклов, Вадим Андреев, Сергей Жолобов, Георгий Мартиросян, Александр Пороховщиков, Елена Захарова, Виталий Абдулов, Серегей Коноплев, Борис Лифанов, Владимир Павленко, Ольга Солодухина
Описание: Мальчишки четырнадцати лет оказываются в Суворовском училище — кто-то благодаря семейной традиции, кто-то ради высоких идеалов, а кто-то даже не по собственной воле. Поступив в Суворовское, ребята поначалу не представляют всей степени нагрузки, а главное — ответственности, которая окажет глубокое влияние на их последующую жизнь.
Издавна, начиная с 18 века, из стен кадетских корпусов выходили благородные офицеры, цвет нации, защитники Отечества, опора и гордость высшего общества, — это были элитные заведения, где всегда было почетно и очень трудно учиться. Но свою избранность наши суворовцы начинают осознавать не сразу. С первых дней офицеры-наставники приучают их к жестокому армейскому режиму во всем — от учебы до тренировок. «Школой выживания» называют военные обучение своих преемников. Постепенно суворовцам открываются негласные законы чести, глубина и непрерывность традиции, они становятся одной семьей, мужают, закаляя волю и характер.
У каждого из них — своя судьба, заветная мечта, первая любовь… Их поддерживают, за них переживают родственники и друзья. Не все из этих мальчишек станут военными в будущем — да это и не нужно. Главное, что все они — суворовцы, парни одной семьи, на которых можно и нужно положиться.
Все раздачи сериала: http://rutracker.org/forum/tracker.php?f=9&nm=Кадетство
Семпл: http://multi-up.com/912783
Качество: DVDRip
Формат: AVI
Видео кодек: XviD
Аудио кодек: AC3
Видео: 640x368, 25 fps, XviD MPEG-4 ~1120 kbps avg, 0.19 bit/pixel
Аудио: AC-3, 48 kHz, 6 ch, 448 kbps avg

MI

General
Complete name : E:\Kadetstvo.1.sezon.DVDRip\Kadetstvo.02.seriya.DVDRip.avi
Format : AVI
Format/Info : Audio Video Interleave
File size : 501 MiB
Duration : 44mn 20s
Overall bit rate : 1 580 Kbps
Writing application : VirtualDubMod 1.5.10.3 | www.virtualdub-fr.org || (build 2550/release)
Writing library : VirtualDubMod build 2550/release
Video
ID : 0
Format : MPEG-4 Visual
Format profile : Advanced Simple@L5
Format settings, BVOP : 1
Format settings, QPel : No
Format settings, GMC : No warppoints
Format settings, Matrix : Custom
Codec ID : XVID
Codec ID/Hint : XviD
Duration : 44mn 20s
Bit rate : 1 122 Kbps
Width : 640 pixels
Height : 368 pixels
Display aspect ratio : 1.739
Frame rate : 25.000 fps
Color space : YUV
Chroma subsampling : 4:2:0
Bit depth : 8 bits
Scan type : Progressive
Compression mode : Lossy
Bits/(Pixel*Frame) : 0.191
Stream size : 356 MiB (71%)
Writing library : XviD 65
Audio
ID : 1
Format : AC-3
Format/Info : Audio Coding 3
Mode extension : CM (complete main)
Format settings, Endianness : Big
Codec ID : 2000
Duration : 44mn 20s
Bit rate mode : Constant
Bit rate : 448 Kbps
Channel count : 6 channels
Channel positions : Front: L C R, Side: L R, LFE
Sampling rate : 48.0 KHz
Bit depth : 16 bits
Compression mode : Lossy
Stream size : 142 MiB (28%)
Alignment : Split accross interleaves
Interleave, duration : 40 ms (1.00 video frame)
Interleave, preload duration : 500 ms

Скриншоты

2-ой сезон3-ий сезон
Вы не можете начинать темы
Вы не можете отвечать на сообщения
Вы не можете редактировать свои сообщения
Вы не можете удалять свои сообщения
Вы не можете голосовать в опросах
Вы не можете прикреплять файлы к сообщениям
Вы можете скачивать файлы
!ВНИМАНИЕ!

Сайт не предоставляет электронные версии произведений, а занимается лишь коллекционированием и каталогизацией ссылок, присылаемых и публикуемых на форуме нашими читателями. Если вы являетесь правообладателем какого-либо представленного материала и не желаете, чтобы ссылка на него находилась в нашем каталоге, свяжитесь с нами, и мы незамедлительно удалим ее. Файлы для обмена на трекере предоставлены пользователями сайта, и администрация не несет ответственности за их содержание. Просьба не заливать файлы, защищенные авторскими правами, а также файлы нелегального содержания!

Искали программы, игры, дополнения, музыка mp3, аниме, аудио книги, журналы? Добро пожаловать на свободный торрент трекер Torrents, у нас можно скачать бесплатно, без смс и регистрации и прочих ограничений лучшие, отборные сборки программ, игр. Скачать торрентом не составит труда даже не опытному пользователю. Раздачи ежедневно обновляются, только лучшие и качественные раздачи, подробные описания и скриншоты. Огромная коллекция программ для работы со звуком, графикой, дизайном, а так же множество плагинов и инструментов к ним с подробной инструкцией и рекомендациями. Прошивки для навигаторов, карты. Разнообразные игры, для Windows, Linux. В коллекцие есть и старые игры любых жанров, Rpg, Action, Shooter, strategy Множество дополнений, модификаций, сценариев для популярных игр в жанре экш, рпг, гонки, стратегии, логические игры. Множество аддонов и сценариев для Microsoft Flight Simulator Большая коллекция книг, учебников. Если нет возможности купить печатное издание - смело скачивайте цифровую версию книги или, быть может, журнала. Не любите читать - можно загрузить бесплатно аудикнигу. Для веб дизайнеров и программистов так же найдется множество специализированного софта, таких как: редакторы с подсветкой, среды программирования, компоненты, системы управления базами данных, разнообразные скрипты и шаблоны. Не так давно у нас появился материал для автолюбителей и владельцев мото - оригинальные и неоригинальные каталоги запчастей, книги и журналы по ремонту и обслуживанию, видеоуроки, статьи по чип тюнингу, прошивкам. Процедура получения контента элементарная, достаточно просто скачать торрент файл и добавить его в загрузку в вашем торрент клиенте. Если у вас нет специального торрент клиента, вы можете его скачать у нас.