Кадетство / Сезон: 3 / Серии: 1-70 из 70 (Валентин Козловский) [2007, драма, комедия, приключения, DVDRip] 

Цитировать
Кадетство (3 сезон)
Год выпуска: 2007
Производство: Киноконстанта
Жанр: драма, комедия, приключения
Продолжительность: 00:44:00 серия
Режиссёр: Валентин Козловский
В ролях: Александр Головин, Павел Бессонов, Аристарх Венес, Борис Корчевников, Артем Терехов, Артур Сопельник, Кирилл Емельянов, Вадим Андреев, Валерий Баринов, Елена Захарова, Алина Колкер, Виталий Кудрявцев, Ирина Медведева, Сергей Плотников (II), Александр Пороховщиков, Дарья Соболева, Линда Табагари, Юлия Учиткина, Владимир Балдов, Сергей Жолобов, Владимир Стеклов, Виталий Абдулов, Виктория Алашеева, Егор Баринов, Владимир Белоусов (II), Светлана Варецкая, Фёдор Добронравов, Андрей Иванов (VI), Вероника Изотова, Элеонора Ильченко, Владимир Лаптев, Галина Лебедева, Ольга Лукьяненко, Елена Мольченко (Фатюшина), Александр Никулин, Владимир Павленко, Татьяна Пискарёва, Борис Полунин
Описание: Многосерийный фильм «Кадетство» – о жизни ребят, у которых есть благородная цель, высокая мечта. Ведь не умерли такие понятия как благородство, настоящая дружба, патриотизм? Остается живым во все времена такое призвание как служение Родине.
Это фильм о взрослении, о первой любви, о прощании с детством... О взаимоотношениях ребят со взрослым, реальным и порой жестоким миром, в котором им предстоит жить.
Сценарий основан прежде всего на личных воспоминаниях генерального продюсера фильма, автора идеи «Кадетства», выпускника Тверского Суворовского Училища, а ныне руководителя отдела производства сериалов на СТС – Вячеслава Муругова. У него как у настоящего суворовца довольно необычная судьба: он оставил военную карьеру в расцвете лет и стал играть в КВН. Другой КВНщик – Леонид Купридо, также знающий армейский устав не понаслышке, совместно с Муруговым и группой сценаристов, стал писать смешную и трогательную историю о жизни и приключениях суворовцев. Вот и соединились вместе юмор, военная тематика и серьезное отношение к жизни, – появился новый жанр, объединяющий драму и комедию – драмеди. То есть самый настоящий «жизненный» жанр..
Все раздачи сериала: http://rutracker.org/forum/tracker.php?f=9&nm=Кадетство
Сэмпл: http://multi-up.com/929654
Качество: DVDRip
Формат: AVI
Видео кодек: XviD
Аудио кодек: AC3
Видео: 640x368, 25 fps, XviD MPEG-4 ~1362 kbps avg, 0.19 bit/pixel
Аудио: AC3, 48.0 KHz, 2 ch, 192 Kbps

MI

General
Complete name : E:\Download\Kadetstvo.3.sezon.DVDRip\Kadetstvo-3.26.seriya.DVDRip.avi
Format : AVI
Format/Info : Audio Video Interleave
File size : 501 MiB
Duration : 45mn 17s
Overall bit rate : 1 548 Kbps
Writing application : VirtualDubMod 1.5.10.3 | www.virtualdub-fr.org || (build 2550/release)
Writing library : VirtualDubMod build 2550/release
Video
ID : 0
Format : MPEG-4 Visual
Format profile : Advanced Simple@L5
Format settings, BVOP : 1
Format settings, QPel : No
Format settings, GMC : No warppoints
Format settings, Matrix : Custom
Codec ID : XVID
Codec ID/Hint : XviD
Duration : 45mn 17s
Bit rate : 1 346 Kbps
Width : 640 pixels
Height : 368 pixels
Display aspect ratio : 1.739
Frame rate : 25.000 fps
Color space : YUV
Chroma subsampling : 4:2:0
Bit depth : 8 bits
Scan type : Progressive
Compression mode : Lossy
Bits/(Pixel*Frame) : 0.229
Stream size : 436 MiB (87%)
Writing library : XviD 65
Audio
ID : 1
Format : AC-3
Format/Info : Audio Coding 3
Mode extension : CM (complete main)
Format settings, Endianness : Big
Codec ID : 2000
Duration : 45mn 17s
Bit rate mode : Constant
Bit rate : 192 Kbps
Channel count : 2 channels
Channel positions : Front: L R
Sampling rate : 48.0 KHz
Bit depth : 16 bits
Compression mode : Lossy
Stream size : 62.2 MiB (12%)
Alignment : Split accross interleaves
Interleave, duration : 40 ms (1.00 video frame)
Interleave, preload duration : 500 ms

Скриншоты

1-ый сезон2-ой сезон
Вы не можете начинать темы
Вы не можете отвечать на сообщения
Вы не можете редактировать свои сообщения
Вы не можете удалять свои сообщения
Вы не можете голосовать в опросах
Вы не можете прикреплять файлы к сообщениям
Вы можете скачивать файлы
!ВНИМАНИЕ!

Сайт не предоставляет электронные версии произведений, а занимается лишь коллекционированием и каталогизацией ссылок, присылаемых и публикуемых на форуме нашими читателями. Если вы являетесь правообладателем какого-либо представленного материала и не желаете, чтобы ссылка на него находилась в нашем каталоге, свяжитесь с нами, и мы незамедлительно удалим ее. Файлы для обмена на трекере предоставлены пользователями сайта, и администрация не несет ответственности за их содержание. Просьба не заливать файлы, защищенные авторскими правами, а также файлы нелегального содержания!

Искали программы, игры, дополнения, музыка mp3, аниме, аудио книги, журналы? Добро пожаловать на свободный торрент трекер Torrents, у нас можно скачать бесплатно, без смс и регистрации и прочих ограничений лучшие, отборные сборки программ, игр. Скачать торрентом не составит труда даже не опытному пользователю. Раздачи ежедневно обновляются, только лучшие и качественные раздачи, подробные описания и скриншоты. Огромная коллекция программ для работы со звуком, графикой, дизайном, а так же множество плагинов и инструментов к ним с подробной инструкцией и рекомендациями. Прошивки для навигаторов, карты. Разнообразные игры, для Windows, Linux. В коллекцие есть и старые игры любых жанров, Rpg, Action, Shooter, strategy Множество дополнений, модификаций, сценариев для популярных игр в жанре экш, рпг, гонки, стратегии, логические игры. Множество аддонов и сценариев для Microsoft Flight Simulator Большая коллекция книг, учебников. Если нет возможности купить печатное издание - смело скачивайте цифровую версию книги или, быть может, журнала. Не любите читать - можно загрузить бесплатно аудикнигу. Для веб дизайнеров и программистов так же найдется множество специализированного софта, таких как: редакторы с подсветкой, среды программирования, компоненты, системы управления базами данных, разнообразные скрипты и шаблоны. Не так давно у нас появился материал для автолюбителей и владельцев мото - оригинальные и неоригинальные каталоги запчастей, книги и журналы по ремонту и обслуживанию, видеоуроки, статьи по чип тюнингу, прошивкам. Процедура получения контента элементарная, достаточно просто скачать торрент файл и добавить его в загрузку в вашем торрент клиенте. Если у вас нет специального торрент клиента, вы можете его скачать у нас.